Demet Evgar | The Return of Superman | Artikel Notificaties op je ontgrendelscherm zonder Android 5.0 LollipopLees meer

Ant Man and the Wasp 1080p BluRay BDrip x265 DTS-HD MA 7.1 D0ct0r...

  • Category Movies
  • Type HEVC/x265
  • Language English
  • Total size 8.3 GB
  • Uploaded By D0ct0rLew
  • Downloads 40
  • Last checked 1 hour ago
  • Date uploaded 17 hours ago
  • Seeders 15
  • Leechers 15

Infohash : 4068D5D796E35D73602F184DDAFE1752FD57C85B





Screenshots


Source


Encode


Media Information



Unique ID : 235505634859157662502953698365168741619 (0xB12CBC44CB57B3E6B348A43ADB98ECF3)
Complete name : Ant Man and the Wasp 1080p BluRay BDrip x265 DTS-HD MA 7.1 D0ct0rLew[UTR-HD].mkv
Format : Matroska
Format version : Version 4
File size : 8.27 GiB
Duration : 1 h 58 min
Overall bit rate mode : Variable
Overall bit rate : 10.0 Mb/s
Movie name : Ant Man and the Wasp 2018 1080p BluRay BDRIP
Encoded date : UTC 2018-10-10 23:41:27
Writing application : mkvmerge v17.0.0 ('Be Ur Friend') 64-bit
Writing library : libebml v1.3.5 + libmatroska v1.4.8

Video
ID : 1
Format : HEVC
Format/Info : High Efficiency Video Coding
Format profile : Main [email protected]@Main
Codec ID : V_MPEGH/ISO/HEVC
Duration : 1 h 58 min
Bit rate : 5 062 kb/s
Width : 1 920 pixels
Height : 1 080 pixels
Display aspect ratio : 16:9
Frame rate mode : Constant
Frame rate : 23.976 (24000/1001) FPS
Color space : YUV
Chroma subsampling : 4:2:0
Bit depth : 10 bits
Bits/(Pixel*Frame) : 0.102
Stream size : 4.18 GiB (51%)
Writing library : x265 2.8+66-88ee12651e30:[Windows][GCC 8.2.0][64 bit] 10bit
Encoding settings : cpuid=1049583 / frame-threads=3 / numa-pools=8 / wpp / no-pmode / no-pme / no-psnr / no-ssim / log-level=2 / input-csp=1 / input-res=1920x1080 / interlace=0 / total-frames=169907 / level-idc=0 / high-tier=1 / uhd-bd=0 / ref=4 / no-allow-non-conformance / no-repeat-headers / annexb / no-aud / no-hrd / info / hash=0 / no-temporal-layers / open-gop / min-keyint=24 / keyint=240 / gop-lookahead=0 / bframes=8 / b-adapt=2 / b-pyramid / bframe-bias=0 / rc-lookahead=90 / lookahead-slices=4 / scenecut=40 / radl=0 / no-intra-refresh / ctu=64 / min-cu-size=8 / no-rect / no-amp / max-tu-size=32 / tu-inter-depth=2 / tu-intra-depth=2 / limit-tu=4 / rdoq-level=2 / dynamic-rd=0.00 / no-ssim-rd / signhide / no-tskip / nr-intra=0 / nr-inter=0 / no-constrained-intra / no-strong-intra-smoothing / max-merge=3 / limit-refs=2 / limit-modes / me=3 / subme=5 / merange=92 / temporal-mvp / weightp / weightb / no-analyze-src-pics / deblock=0:0 / sao / no-sao-non-deblock / rd=6 / no-early-skip / rskip / no-fast-intra / no-tskip-fast / no-cu-lossless / b-intra / no-splitrd-skip / rdpenalty=0 / psy-rd=1.40 / psy-rdoq=1.00 / no-rd-refine / no-lossless / cbqpoffs=0 / crqpoffs=0 / rc=crf / crf=16.0 / qcomp=0.60 / qpstep=4 / stats-write=0 / stats-read=0 / ipratio=1.40 / pbratio=1.30 / aq-mode=2 / aq-strength=1.40 / cutree / zone-count=0 / no-strict-cbr / qg-size=32 / no-rc-grain / qpmax=69 / qpmin=0 / no-const-vbv / sar=1 / overscan=0 / videoformat=5 / range=0 / colorprim=1 / transfer=1 / colormatrix=1 / chromaloc=0 / display-window=0 / max-cll=0,0 / min-luma=0 / max-luma=1023 / log2-max-poc-lsb=8 / vui-timing-info / vui-hrd-info / slices=1 / no-opt-qp-pps / no-opt-ref-list-length-pps / no-multi-pass-opt-rps / scenecut-bias=0.05 / no-opt-cu-delta-qp / no-aq-motion / no-hdr / no-hdr-opt / no-dhdr10-opt / no-idr-recovery-sei / analysis-reuse-level=5 / scale-factor=0 / refine-intra=0 / refine-inter=0 / refine-mv=0 / no-limit-sao / ctu-info=0 / no-lowpass-dct / refine-mv-type=0 / copy-pic=1 / max-ausize-factor=1.0 / no-dynamic-refine / no-single-sei
Default : Yes
Forced : No
Color range : Limited
Color primaries : BT.709
Transfer characteristics : BT.709
Matrix coefficients : BT.709

Audio #1
ID : 2
Format : DTS XLL
Format/Info : Digital Theater Systems
Commercial name : DTS-HD Master Audio
Codec ID : A_DTS
Duration : 1 h 58 min
Bit rate mode : Variable
Bit rate : 4 788 kb/s
Channel(s) : 8 channels
Channel layout : C L R LFE Lb Rb Lss Rss
Sampling rate : 48.0 kHz
Frame rate : 93.750 FPS (512 SPF)
Bit depth : 24 bits
Compression mode : Lossless
Stream size : 3.95 GiB (48%)
Language : English
Default : Yes
Forced : No

Audio #2
ID : 4
Format : AAC LC
Format/Info : Advanced Audio Codec Low Complexity
Codec ID : A_AAC-2
Duration : 1 h 58 min
Bit rate : 128 kb/s
Channel(s) : 2 channels
Channel layout : L R
Sampling rate : 48.0 kHz
Frame rate : 46.875 FPS (1024 SPF)
Compression mode : Lossy
Delay relative to video : 9 ms
Stream size : 108 MiB (1%)
Title : Commentary by director Peyton Reed
Language : English
Default : No
Forced : No

Text #1
ID : 3
Format : UTF-8
Codec ID : S_TEXT/UTF8
Codec ID/Info : UTF-8 Plain Text
Duration : 1 h 57 min
Bit rate : 70 b/s
Count of elements : 2110
Stream size : 60.6 KiB (0%)
Language : English
Default : Yes
Forced : No

Text #2
ID : 5
Format : VobSub
Muxing mode : zlib
Codec ID : S_VOBSUB
Codec ID/Info : Picture based subtitle format used on DVDs
Duration : 1 h 57 min
Bit rate : 16.6 kb/s
Count of elements : 2402
Stream size : 14.0 MiB (0%)
Title : Commentary by director Peyton Reed
Language : English
Default : No
Forced : No

Text #3
ID : 6
Format : VobSub
Muxing mode : zlib
Codec ID : S_VOBSUB
Codec ID/Info : Picture based subtitle format used on DVDs
Duration : 1 h 57 min
Bit rate : 3 637 b/s
Count of elements : 1794
Stream size : 3.07 MiB (0%)
Language : Spanish
Default : No
Forced : No

Text #4
ID : 7
Format : VobSub
Muxing mode : zlib
Codec ID : S_VOBSUB
Codec ID/Info : Picture based subtitle format used on DVDs
Duration : 1 h 57 min
Bit rate : 7 186 b/s
Count of elements : 2388
Stream size : 6.06 MiB (0%)
Language : French
Default : No
Forced : No

Text #5
ID : 8
Format : VobSub
Muxing mode : zlib
Codec ID : S_VOBSUB
Codec ID/Info : Picture based subtitle format used on DVDs
Duration : 1 h 57 min
Bit rate : 7 570 b/s
Count of elements : 2388
Stream size : 6.39 MiB (0%)
Language : Portuguese
Default : No
Forced : No

Text #6
ID : 9
Format : VobSub
Muxing mode : zlib
Codec ID : S_VOBSUB
Codec ID/Info : Picture based subtitle format used on DVDs
Duration : 1 h 57 min
Bit rate : 8 044 b/s
Count of elements : 2388
Stream size : 6.79 MiB (0%)
Language : Spanish
Default : No
Forced : No

Text #7
ID : 10
Format : VobSub
Muxing mode : zlib
Codec ID : S_VOBSUB
Codec ID/Info : Picture based subtitle format used on DVDs
Duration : 1 h 57 min
Bit rate : 3 165 b/s
Count of elements : 1790
Stream size : 2.67 MiB (0%)
Language : French
Default : No
Forced : No

Text #8
ID : 11
Format : VobSub
Muxing mode : zlib
Codec ID : S_VOBSUB
Codec ID/Info : Picture based subtitle format used on DVDs
Duration : 1 h 57 min
Bit rate : 3 639 b/s
Count of elements : 1767
Stream size : 3.07 MiB (0%)
Language : Portuguese
Default : No
Forced : No

Menu
00:00:00.000 : en:Prologue
00:04:03.034 : en:World's Greatest Grandma
00:10:16.407 : en:Easy Peasy
00:13:39.861 : en:Quantum Entanglement
00:21:25.451 : en:Kitchen Conflict
00:29:07.829 : en:Bill Foster
00:36:09.084 : en:Student Body
00:40:56.579 : en:Molecular Disequilibrium
00:50:17.431 : en:Truth Serum
00:58:59.077 : en:Help From Janet
01:04:56.434 : en:Partners
01:12:54.287 : en:Misdirection
01:18:32.124 : en:San Francisco Car Chase
01:24:44.913 : en:Giant-Man
01:29:47.340 : en:The Quantum Void
01:36:16.270 : en:Extraction
01:43:35.334 : en:Happy Endings
01:46:59.830 : en:End Credits


Source Media Information



Unique ID : 282962842575066682108208320581657133874 (0xD4E0A94233ED98D1CE16D51FEB838332)
Complete name : Ant.Man.and.the.Wasp.2018.1080p.BluRay.REMUX.AVC.DTS-HD.MA.7.1-EPSiLON.mkv
Format : Matroska
Format version : Version 4 / Version 2
File size : 30.7 GiB
Duration : 1 h 58 min
Overall bit rate mode : Variable
Overall bit rate : 37.2 Mb/s
Encoded date : UTC 2018-10-06 05:02:49
Writing application : mkvmerge v27.0.0 ('Metropolis') 64-bit
Writing library : libebml v1.3.6 + libmatroska v1.4.9

Video
ID : 1
Format : AVC
Format/Info : Advanced Video Codec
Format profile : [email protected]
Format settings, CABAC : Yes
Format settings, ReFrames : 4 frames
Format settings, GOP : M=3, N=12
Codec ID : V_MPEG4/ISO/AVC
Duration : 1 h 58 min
Bit rate mode : Variable
Bit rate : 31.7 Mb/s
Maximum bit rate : 34.5 Mb/s
Width : 1 920 pixels
Height : 1 080 pixels
Display aspect ratio : 16:9
Frame rate mode : Constant
Frame rate : 23.976 (24000/1001) FPS
Color space : YUV
Chroma subsampling : 4:2:0
Bit depth : 8 bits
Scan type : Progressive
Bits/(Pixel*Frame) : 0.638
Stream size : 26.2 GiB (85%)
Title : MPEG-4 AVC Video / 32026 kbps / 1080p / 23.976 fps / 16:9 / High Profile 4.1
Language : English
Default : Yes
Forced : No

Audio #1
ID : 2
Format : DTS
Format/Info : Digital Theater Systems
Format profile : MA / Core
Mode : 16
Format settings, Endianness : Big
Codec ID : A_DTS
Duration : 1 h 58 min
Bit rate mode : Variable / Constant
Bit rate : 4 788 kb/s / 1 509 kb/s
Channel(s) : 8 channels / 6 channels
Channel positions : Front: L C R, Side: L R, Back: L R, LFE / Front: L C R, Side: L R, LFE
Sampling rate : 48.0 kHz
Frame rate : 93.750 FPS (512 spf)
Bit depth : 24 bits
Compression mode : Lossless / Lossy
Stream size : 3.95 GiB (13%)
Title : DTS-HD Master Audio / 7.1 / 48 kHz / 4788 kbps / 24-bit
Language : English
Default : Yes
Forced : No

Audio #2
ID : 3
Format : AC-3
Format/Info : Audio Coding 3
Format settings, Endianness : Big
Codec ID : A_AC3
Duration : 1 h 58 min
Bit rate mode : Constant
Bit rate : 192 kb/s
Channel(s) : 2 channels
Channel positions : Front: L R
Sampling rate : 48.0 kHz
Frame rate : 31.250 FPS (1536 spf)
Bit depth : 16 bits
Compression mode : Lossy
Stream size : 162 MiB (1%)
Title : Commentary by director Peyton Reed
Language : English
Service kind : Complete Main
Default : No
Forced : No

Text #1
ID : 4
Format : PGS
Codec ID : S_HDMV/PGS
Codec ID/Info : Picture based subtitle format used on BDs/HD-DVDs
Duration : 1 h 57 min
Bit rate : 44.7 kb/s
Count of elements : 4274
Stream size : 37.6 MiB (0%)
Title : SDH
Language : English
Default : No
Forced : No

Text #2
ID : 5
Format : PGS
Codec ID : S_HDMV/PGS
Codec ID/Info : Picture based subtitle format used on BDs/HD-DVDs
Duration : 1 h 57 min
Bit rate : 31.1 kb/s
Count of elements : 3580
Stream size : 26.2 MiB (0%)
Language : French
Default : No
Forced : No

Text #3
ID : 6
Format : PGS
Codec ID : S_HDMV/PGS
Codec ID/Info : Picture based subtitle format used on BDs/HD-DVDs
Duration : 1 h 57 min
Bit rate : 36.0 kb/s
Count of elements : 3534
Stream size : 30.3 MiB (0%)
Title : Brazilian
Language : Portuguese
Default : No
Forced : No

Text #4
ID : 7
Format : PGS
Codec ID : S_HDMV/PGS
Codec ID/Info : Picture based subtitle format used on BDs/HD-DVDs
Duration : 1 h 57 min
Bit rate : 36.0 kb/s
Count of elements : 3588
Stream size : 30.3 MiB (0%)
Title : Latin American
Language : Spanish
Default : No
Forced : No

Text #5
ID : 8
Format : PGS
Codec ID : S_HDMV/PGS
Codec ID/Info : Picture based subtitle format used on BDs/HD-DVDs
Duration : 1 h 57 min
Bit rate : 87.3 kb/s
Count of elements : 4804
Stream size : 73.7 MiB (0%)
Title : Commentary by director Peyton Reed
Default : No
Forced : No

Text #6
ID : 9
Format : PGS
Codec ID : S_HDMV/PGS
Codec ID/Info : Picture based subtitle format used on BDs/HD-DVDs
Duration : 1 h 57 min
Bit rate : 74.4 kb/s
Count of elements : 4776
Stream size : 62.8 MiB (0%)
Title : Commentary by director Peyton Reed
Language : French
Default : No
Forced : No

Text #7
ID : 10
Format : PGS
Codec ID : S_HDMV/PGS
Codec ID/Info : Picture based subtitle format used on BDs/HD-DVDs
Duration : 1 h 57 min
Bit rate : 78.7 kb/s
Count of elements : 4776
Stream size : 66.4 MiB (0%)
Title : Commentary by director Peyton Reed
Language : Portuguese
Default : No
Forced : No

Text #8
ID : 11
Format : PGS
Codec ID : S_HDMV/PGS
Codec ID/Info : Picture based subtitle format used on BDs/HD-DVDs
Duration : 1 h 57 min
Bit rate : 83.5 kb/s
Count of elements : 4776
Stream size : 70.4 MiB (0%)
Title : Commentary by director Peyton Reed
Language : Spanish
Default : No
Forced : No

Menu
00:00:00.000 : :Prologue
00:04:03.034 : :World's Greatest Grandma
00:10:16.407 : :Easy Peasy
00:13:39.861 : :Quantum Entanglement
00:21:25.451 : :Kitchen Conflict
00:29:07.829 : :Bill Foster
00:36:09.084 : :Student Body
00:40:56.579 : :Molecular Disequilibrium
00:50:17.431 : :Truth Serum
00:58:59.077 : :Help From Janet
01:04:56.434 : :Partners
01:12:54.287 : :Misdirection
01:18:32.124 : :San Francisco Car Chase
01:24:44.913 : :Giant-Man
01:29:47.340 : :The Quantum Void
01:36:16.270 : :Extraction
01:43:35.334 : :Happy Endings
01:46:59.830 : :End Credits


We have no issue with individuals posting or re-uploading our torrents on a platform we aren't on. However, if this is something you'd like to do, please do so in a 'as-is' format. We ask that you do not create a new torrent, include all descriptions you see above including the UTR logo, tags, notes and screenshots. If you'd like to become a permanent poster on a website we don't post to, feel free to get in contact with a UniTeam member.

Files:

  • Ant Man and the Wasp 1080p BluRay BDrip x265 DTS-HD MA 7.1 D0ct0rLew[UTR-HD].mkv (8.3 GB)

There are currently no comments. Feel free to leave one :)

Code:

  • http://tracker.city9x.com:2710/announce
  • udp://shadowshq.yi.org:6969/announce
  • udp://tracker.justseed.it:1337/announce
  • http://0d.kebhana.mx:443/announce
  • http://open.acgnxtracker.com:443/announce
  • http://tr.fuuko.net:443/announce
  • http://bt.dl1234.com:80/announce
  • http://p4p.arenabg.com:1337/announce
  • http://tracker.opentrackr.org:1337/announce
  • http://explodie.org:6969/announce
  • udp://tracker.zer0day.to:1337/announce
  • http://torrentsmd.com:8080/announce
  • http://tracker.city9x.com:2710/announce
  • udp://tracker.coppersurfer.tk:6969/announce
  • udp://tracker.leechers-paradise.org:6969/announce
  • http://linetorrent.xyz:443/announce
  • udp://tracker.coppersurfer.tk:6969
  • udp://tracker.leechers-paradise.org:6969
  • udp://tracker.opentrackr.org:1337/announce
  • udp://torrent.gresille.org:80/announce
  • udp://9.rarbg.me:2710/announce
  • udp://p4p.arenabg.com:1337
  • udp://tracker.internetwarriors.net:1337