艺术设计 | Christopher Sean | Photos des monuments de New York

Venom 2018 V3 New Src HDTS x264 [email protected]

  • Category Movies
  • Type h.264/x264
  • Language English
  • Total size 982.7 MB
  • Uploaded By iMaX100
  • Downloads 47
  • Last checked 1 hour ago
  • Date uploaded 3 hours ago
  • Seeders 11
  • Leechers 27

Venom

HorrorScience FictionActionThriller

When Eddie Brock acquires the powers of a symbiote, he will have to release his alter-ego “Venom” to save his life.

Infohash : 622DAD9C34BEF3661B3CB31E253B15B069E345BD

Language: English

Genre: Action | Horror | Sci-Fi | Thriller

When Eddie Brock acquires the powers of a symbiote, he will have to release his alter-ego "Venom" to save his life.



Code:

Format : Matroska
Format version : Version 4 / Version 2
File size : 983 MiB
Duration : 1 h 36 min
Overall bit rate : 1 422 kb/s
Movie name : www.MOVEY.CC
Encoded date : UTC 2018-10-11 12:30:20
Writing application : mkvmerge v19.0.0 ('Brave Captain') 64-bit
Writing library : libebml v1.3.5 + libmatroska v1.4.8

Video
ID : 1
Format : AVC
Format/Info : Advanced Video Codec
Format profile : [email protected]
Format settings : CABAC / 4 Ref Frames
Format settings, CABAC : Yes
Format settings, RefFrames : 4 frames
Codec ID : V_MPEG4/ISO/AVC
Duration : 1 h 36 min
Bit rate : 1 228 kb/s
Width : 720 pixels
Height : 358 pixels
Display aspect ratio : 2.011
Frame rate mode : Constant
Frame rate : 29.970 (29970/1000) FPS
Original frame rate : 29.970 (30000/1001) FPS
Color space : YUV
Chroma subsampling : 4:2:0
Bit depth : 8 bits
Scan type : Progressive
Bits/(Pixel*Frame) : 0.159
Stream size : 849 MiB (86%)
Title : www.MOVEY.CC
Writing library : x264 core 155 r2901 7d0ff22
Encoding settings : cabac=1 / ref=3 / deblock=1:0:0 / analyse=0x3:0x113 / me=hex / subme=7 / psy=1 / psy_rd=1.00:0.00 / mixed_ref=1 / me_range=16 / chroma_me=1 / trellis=1 / 8x8dct=1 / cqm=0 / deadzone=21,11 / fast_pskip=1 / chroma_qp_offset=-2 / threads=11 / lookahead_threads=1 / sliced_threads=0 / nr=0 / decimate=1 / interlaced=0 / bluray_compat=0 / constrained_intra=0 / bframes=3 / b_pyramid=2 / b_adapt=1 / b_bias=0 / direct=1 / weightb=1 / open_gop=0 / weightp=2 / keyint=300 / keyint_min=29 / scenecut=40 / intra_refresh=0 / rc_lookahead=40 / rc=2pass / mbtree=1 / bitrate=1228 / ratetol=1.0 / qcomp=0.60 / qpmin=0 / qpmax=69 / qpstep=4 / cplxblur=20.0 / qblur=0.5 / ip_ratio=1.40 / aq=1:1.00
Default : Yes
Forced : No

Audio
ID : 2
Format : AC-3
Format/Info : Audio Coding 3
Codec ID : A_AC3
Duration : 1 h 36 min
Bit rate mode : Constant
Bit rate : 192 kb/s
Channel(s) : 2 channels
Channel positions : Front: L R
Sampling rate : 48.0 kHz
Frame rate : 31.250 FPS (1536 SPF)
Bit depth : 16 bits
Compression mode : Lossy
Stream size : 133 MiB (14%)
Title : www.MOVEY.CC
Language : English
Service kind : Complete Main
Default : Yes
Forced : No

Files:

Venom 2018 V3 New Src HDTS x264 [email protected]
  • www.MOVEY.CC - Venom 2018 V3 New Src HDTS x264 [email protected] (982.7 MB)
  • Visit Like & Share www.MOVEY.CC.txt (0.1 KB)

There are currently no comments. Feel free to leave one :)

Code:

  • udp://tracker.leechers-paradise.org:6969/announce