The Playboy Club | Buddy Complex | Wrecked (2016) S03E10 (1080p WEBRip x265 HEVC 10bit AAC 2.0 Qman) [UTR...

U Turn (2018) Tamil - HDRip - x264 - 700MB - AAC - ESub - MovCr

  • Category Movies
  • Type HD
  • Language Tamil
  • Total size 725.3 MB
  • Uploaded By MovCr
  • Downloads 704
  • Last checked 15 hours ago
  • Date uploaded 3 days ago
  • Seeders 30
  • Leechers 10

Infohash : 8E67EF919A0BA99B23568E4AD7B8AC91C6DB51F1

http://movcr.cc/

U Turn (2018) Tamil - HDRip - x264 - 700MB - AAC - ESub - MovCr



Video
ID : 1
Format : AVC
Format/Info : Advanced Video Codec
Format profile : [email protected]
Format settings : CABAC / 4 Ref Frames
Format settings, CABAC : Yes
Format settings, RefFrames : 4 frames
Codec ID : V_MPEG4/ISO/AVC
Duration : 2 h 6 min
Bit rate : 664 kb/s
Width : 720 pixels
Height : 304 pixels
Display aspect ratio : 2.35:1
Frame rate mode : Constant
Frame rate : 24.000 FPS
Color space : YUV
Chroma subsampling : 4:2:0
Bit depth : 8 bits
Scan type : Progressive
Bits/(Pixel*Frame) : 0.126
Stream size : 607 MiB (84%)
Title : www.MovCr.cc
Writing library : x264 core 155 r2901 7d0ff22
Encoding settings : cabac=1 / ref=1 / deblock=1:0:0 / analyse=0x3:0x113 / me=hex / subme=2 / psy=1 / psy_rd=1.00:0.00 / mixed_ref=0 / me_range=16 / chroma_me=1 / trellis=0 / 8x8dct=1 / cqm=0 / deadzone=21,11 / fast_pskip=1 / chroma_qp_offset=0 / threads=9 / lookahead_threads=2 / sliced_threads=0 / nr=0 / decimate=1 / interlaced=0 / bluray_compat=0 / constrained_intra=0 / bframes=3 / b_pyramid=2 / b_adapt=1 / b_bias=0 / direct=1 / weightb=1 / open_gop=0 / weightp=1 / keyint=240 / keyint_min=24 / scenecut=40 / intra_refresh=0 / rc_lookahead=10 / rc=abr / mbtree=1 / bitrate=664 / ratetol=1.0 / qcomp=0.60 / qpmin=0 / qpmax=69 / qpstep=4 / vbv_maxrate=17500 / vbv_bufsize=17500 / nal_hrd=none / filler=0 / ip_ratio=1.40 / aq=1:1.00
Default : Yes
Forced : No
Color range : Limited
Color primaries : BT.709
Transfer characteristics : BT.709
Matrix coefficients : BT.709

Audio
ID : 2
Format : AAC LC
Format/Info : Advanced Audio Codec Low Complexity
Codec ID : A_AAC-2
Duration : 2 h 6 min
Bit rate : 128 kb/s
Channel(s) : 2 channels
Channel layout : L R
Sampling rate : 48.0 kHz
Frame rate : 46.875 FPS (1024 SPF)
Compression mode : Lossy
Delay relative to video : -21 ms
Stream size : 116 MiB (16%)
Title : www.MovCr.cc
Language : English
Default : Yes
Forced : No

Text
ID : 3
Format : UTF-8
Codec ID : S_TEXT/UTF8
Codec ID/Info : UTF-8 Plain Text
Duration : 2 h 1 min
Bit rate : 65 b/s
Count of elements : 1919
Stream size : 57.7 KiB (0%)
Title : www.MovCr.cc
Default : Yes
Forced : No






Files:

  • [MovCr.cc] - U Turn (2018) Tamil - HDRip - x264 - 700MB - AAC - ESub - MovCr.mkv (725.3 MB)

There are currently no comments. Feel free to leave one :)

Code:

  • http://retracker.mgts.by:80/announce
  • http://retracker.telecom.by:80/announce
  • http://t.nyaatracker.com:80/announce
  • http://tracker.city9x.com:2710/announce
  • http://tracker.electro-torrent.pl:80/announce
  • udp://bt.xxx-tracker.com:2710/announce
  • udp://retracker.lanta-net.ru:2710/announce
  • udp://thetracker.org:80/announce
  • udp://tracker.coppersurfer.tk:6969/announce
  • udp://182.176.139.129:6969/announce
  • udp://5.79.83.193:6969/announce
  • udp://9.rarbg.me:2790/announce
  • udp://9.rarbg.to:2730/announce
  • udp://public.popcorn-tracker.org:6969/announce
  • udp://tracker.opentrackr.org:1337/announce
  • udp://tracker.internetwarriors.net:1337/announce
  • udp://tracker.coppersurfer.tk:6969/announce