The President Show | Mark Allan | Hardcore Discussion Requests

Realms 2018 Movies HDRip x264 5.1 ESubs with Sample ☻rDX☻

  • Category Movies
  • Type HD
  • Language English
  • Total size 911.4 MB
  • Uploaded By nehalpuja
  • Downloads 61
  • Last checked 1 hour ago
  • Date uploaded 2 days ago
  • Seeders 7
  • Leechers 4

Infohash : 1CE692B28FC589EA880FE1DD55E93096082A6A3C

Realms 2018 Movies HDRip x264 5.1 ESubs with Sample ☻rDX☻
===============================================================================================

SCREEN SHOTS:



or

http://iphonehosting.eu/2018/10/realestate/1.html

File size                                : 902 MiB
Duration                                 : 1 h 30 min
Overall bit rate mode                    : Constant
Overall bit rate                         : 1 394 kb/s
Movie name                               : Realms 2018 Movies HDRip x264 5.1 ☻rDX☻

Video
ID                                       : 2
Format                                   : AVC
Format/Info                              : Advanced Video Codec
Format profile                           : [email protected]
Format settings, CABAC                   : Yes
Format settings, ReFrames                : 2 frames
Format settings, GOP                     : M=1, N=12
Codec ID                                 : V_MPEG4/ISO/AVC
Duration                                 : 1 h 30 min
Bit rate mode                            : Constant
Bit rate                                 : 1 011 kb/s
Width                                    : 720 pixels
Height                                   : 304 pixels
Display aspect ratio                     : 2.35:1
Frame rate mode                          : Constant
Frame rate                               : 23.976 FPS
Color space                              : YUV
Chroma subsampling                       : 4:2:0
Bit depth                                : 8 bits
Scan type                                : Progressive
Bits/(Pixel*Frame)                       : 0.193
Stream size                              : 636 MiB (70%)
Title                                    : ☻rDX☻
Default                                  : Yes
Forced                                   : No

Audio
ID                                       : 1
Format                                   : AC-3
Format/Info                              : Audio Coding 3
Mode extension                           : CM (complete main)
Format settings, Endianness              : Big
Codec ID                                 : A_AC3
Duration                                 : 1 h 30 min
Bit rate mode                            : Constant
Bit rate                                 : 384 kb/s
Channel(s)                               : 6 channels
Channel positions                        : Front: L C R, Side: L R, LFE
Sampling rate                            : 48.0 kHz
Frame rate                               : 31.250 FPS (1536 spf)
Bit depth                                : 16 bits
Compression mode                         : Lossy
Stream size                              : 249 MiB (28%)
Title                                    : ☻rDX☻
Default                                  : Yes
Forced                                   : No

http://www.imdb.com/title/tt1934452

Files:

Realms 2018 Movies HDRip x264 5.1 ESubs with Sample ☻rDX☻
  • Sample ~ Realms 2018 Movies HDRip x264 5.1 ESubs ☻rDX☻.mkv (9.1 MB)
  • Realms 2018 Movies HDRip x264 5.1 ESubs ☻rDX☻.mkv (902.4 MB)

There are currently no comments. Feel free to leave one :)

Code:

  • udp://tracker.coppersurfer.tk:6969/announce
  • udp://tracker.leechers-paradise.org:6969/announce
  • udp://tracker.pirateparty.gr:6969/announce
  • udp://eddie4.nl:6969/announce
  • udp://tracker.zer0day.to:1337/announce
  • udp://9.rarbg.me:2710/announce
  • udp://9.rarbg.to:2710/announce
  • udp://public.popcorn-tracker.org:6969/announce
  • udp://p4p.arenabg.ch:1337/announce
  • udp://tracker.vanitycore.co:6969/announce
  • udp://ipv4.tracker.harry.lu:80/announce
  • udp://tracker.opentrackr.org:1337/announce
  • udp://p4p.arenabg.com:1337/announce
  • udp://shadowshq.yi.org:6969/announce