Cats and Peachtopia | DU Recorder | Eps2 How to Get Away with Murder - Season 5

18+ Apostle 2018 Movies HDRip x264 AAC with Sample ☻rDX☻

  • Category Movies
  • Type HD
  • Language English
  • Total size 705.3 MB
  • Uploaded By nehalpuja
  • Downloads 217
  • Last checked 30 minutes ago
  • Date uploaded 17 hours ago
  • Seeders 38
  • Leechers 33

Infohash : 12AC64100C7118D08D712BE2E3DAD4435A5F41DE

18+ Apostle 2018 Movies HDRip x264 AAC with Sample ☻rDX☻
===============================================================================================

SCREEN SHOTS:



or

http://iphonehosting.eu/2018/10/quality/1.html

File size : 699 MiB
Duration : 2 h 10 min
Overall bit rate mode : Constant
Overall bit rate : 751 kb/s
Movie name : 18+ Apostle 2018 Movies HDRip x264 AAC ☻rDX☻

Video
ID : 2
Format : AVC
Format/Info : Advanced Video Codec
Format profile : [email protected]
Format settings, CABAC : Yes
Format settings, ReFrames : 2 frames
Format settings, GOP : M=1, N=12
Codec ID : V_MPEG4/ISO/AVC
Duration : 2 h 10 min
Bit rate mode : Constant
Bit rate : 688 kb/s
Width : 720 pixels
Height : 304 pixels
Display aspect ratio : 2.35:1
Frame rate mode : Constant
Frame rate : 24.000 FPS
Color space : YUV
Chroma subsampling : 4:2:0
Bit depth : 8 bits
Scan type : Progressive
Bits/(Pixel*Frame) : 0.131
Stream size : 625 MiB (89%)
Title : ☻rDX☻
Default : Yes
Forced : No

Audio
ID : 1
Format : MPEG Audio
Format version : Version 1
Format profile : Layer 3
Mode : Joint stereo
Mode extension : MS Stereo
Codec ID : A_MPEG/L3
Codec ID/Hint : MP3
Duration : 2 h 10 min
Bit rate mode : Constant
Bit rate : 64.0 kb/s
Channel(s) : 2 channels
Sampling rate : 44.1 kHz
Compression mode : Lossy
Stream size : 59.5 MiB (9%)
Title : ☻rDX☻
Default : Yes
Forced : No

http://www.imdb.com/title/tt6217306

Files:

18+ Apostle 2018 Movies HDRip x264 AAC with Sample ☻rDX☻
  • Sample ~ 18+ Apostle 2018 Movies HDRip x264 AAC ☻rDX☻.mkv (6.7 MB)
  • 18+ Apostle 2018 Movies HDRip x264 AAC ☻rDX☻.mkv (698.5 MB)

There are currently no comments. Feel free to leave one :)

Code:

  • udp://tracker.coppersurfer.tk:6969/announce
  • udp://tracker.leechers-paradise.org:6969/announce
  • udp://tracker.pirateparty.gr:6969/announce
  • udp://eddie4.nl:6969/announce
  • udp://tracker.zer0day.to:1337/announce
  • udp://9.rarbg.me:2710/announce
  • udp://9.rarbg.to:2710/announce
  • udp://public.popcorn-tracker.org:6969/announce
  • udp://p4p.arenabg.ch:1337/announce
  • udp://tracker.vanitycore.co:6969/announce
  • udp://ipv4.tracker.harry.lu:80/announce
  • udp://tracker.opentrackr.org:1337/announce
  • udp://p4p.arenabg.com:1337/announce
  • udp://shadowshq.yi.org:6969/announce